<?xml version="1.0" standalone="no"?>
<!DOCTYPE svg PUBLIC "-//W3C//DTD SVG 1.1//EN" "http://www.w3.org/Graphics/SVG/1.1/DTD/svg11.dtd" >
<svg xmlns="http://www.w3.org/2000/svg">
<metadata></metadata>
<defs>
<font id="gothamregular" horiz-adv-x="1701" >
<font-face units-per-em="2048" ascent="1638" descent="-410" />
<missing-glyph horiz-adv-x="567" />
<glyph horiz-adv-x="2048" />
<glyph horiz-adv-x="2048" />
<glyph unicode="&#xd;" horiz-adv-x="681" />
<glyph unicode=" "  horiz-adv-x="567" />
<glyph unicode="&#x09;" horiz-adv-x="567" />
<glyph unicode="&#xa0;" horiz-adv-x="567" />
<glyph unicode="!" horiz-adv-x="663" d="M111 1260v174h442v-174l-119 -793h-205zM129 0v348h406v-348h-406z" />
<glyph unicode="&#x22;" horiz-adv-x="1099" d="M70 698l45 736h417v-11l-260 -725h-202zM594 698l47 736h418v-11l-260 -725h-205z" />
<glyph unicode="#" horiz-adv-x="1445" d="M59 276v330h217l39 230h-188v329h246l45 269h297l-47 -269h260l45 269h297l-45 -269h159v-329h-217l-39 -230h189v-330h-244l-49 -276h-297l49 276h-260l-47 -276h-297l47 276h-160zM563 598h275l41 246h-273z" />
<glyph unicode="$" horiz-adv-x="1363" d="M51 207l185 272q197 -137 380 -168v246q-258 59 -377.5 158.5t-119.5 283.5v5q0 184 129 299.5t360 132.5v116h213v-122q236 -27 432 -160l-168 -275q-121 86 -274 123v-237q254 -59 371.5 -161t117.5 -286v-4q0 -184 -130 -297t-353 -133v-201h-213v205 q-315 33 -553 203zM479 1030q0 -41 29.5 -66.5t109.5 -48.5v222q-139 -12 -139 -103v-4zM809 299q137 14 137 104v5q0 43 -29.5 68.5t-107.5 47.5v-225z" />
<glyph unicode="%" horiz-adv-x="1841" d="M72 1065v4q0 162 102 273.5t268 111.5q164 0 266.5 -110.5t102.5 -272.5v-4q0 -162 -104.5 -273.5t-266 -111.5t-265 110.5t-103.5 272.5zM229 0l1106 1434h277l-1106 -1434h-277zM322 1067q0 -70 34.5 -115t86 -45t85 45t33.5 113v4q0 68 -34.5 114t-86.5 46 q-53 0 -85.5 -45t-32.5 -113v-4zM1030 362v5q0 162 102.5 273.5t268.5 111.5q164 0 266 -111t102 -272v-4q0 -160 -104 -272.5t-266 -112.5t-265.5 111.5t-103.5 270.5zM1280 365q0 -68 35 -114t86 -46t85 45t34 112v5q0 70 -34 114.5t-87 44.5q-55 0 -87 -44t-32 -113v-4z " />
<glyph unicode="&#x26;" horiz-adv-x="1429" d="M43 389v4q0 270 291 402q-94 135 -94 274v4q0 162 122.5 275.5t327.5 113.5q193 0 309.5 -104.5t116.5 -263.5v-4q0 -244 -280 -373l159 -156q63 92 135 227l263 -131q-100 -182 -189 -303l193 -190l-269 -193l-147 150q-190 -145 -426 -146q-225 0 -368.5 112 t-143.5 302zM440 410q0 -63 47 -102.5t121 -39.5q78 0 170 62l-235 239q-102 -61 -103 -155v-4zM575 1059q0 -72 74 -164q152 68 152 176v4q0 51 -31 83t-80 32q-51 0 -83 -35t-32 -92v-4z" />
<glyph unicode="'" horiz-adv-x="581" d="M70 698l45 736h426v-11l-260 -725h-211z" />
<glyph unicode="(" horiz-adv-x="911" d="M90 588q0 301 149.5 511t448.5 365l162 -241q-201 -137 -290 -286t-89 -349.5t89 -349t290 -285.5l-162 -242q-299 156 -448.5 366t-149.5 511z" />
<glyph unicode=")" horiz-adv-x="911" d="M61 -47q201 137 290 285.5t89 349t-89 349t-290 286.5l162 241q299 -156 448.5 -365.5t149.5 -510.5t-149.5 -511t-448.5 -366z" />
<glyph unicode="*" horiz-adv-x="870" d="M57 973l260 92l-260 92l111 191l211 -181l-51 271h215l-51 -271l210 181l111 -191l-260 -92l260 -92l-111 -189l-210 181l51 -271h-215l51 271l-211 -181z" />
<glyph unicode="+" horiz-adv-x="1310" d="M131 549v344h346v352h357v-352h346v-344h-346v-352h-357v352h-346z" />
<glyph unicode="," horiz-adv-x="581" d="M41 -188q211 25 205 192h-158v399h406v-325q0 -217 -108.5 -313.5t-313.5 -102.5z" />
<glyph unicode="-" horiz-adv-x="835" d="M82 469v342h672v-342h-672z" />
<glyph unicode="." horiz-adv-x="581" d="M88 0v399h406v-399h-406z" />
<glyph unicode="/" horiz-adv-x="1095" d="M-78 -262l907 1896h316l-907 -1896h-316z" />
<glyph unicode="0" horiz-adv-x="1495" d="M84 713v4q0 313 184.5 529t481.5 216t479 -214t182 -527v-4q0 -313 -183.5 -529.5t-482.5 -216.5t-480 214t-181 528zM483 717q0 -174 74 -283.5t192.5 -109.5t190.5 108.5t72 280.5v4q0 172 -75 282.5t-191.5 110.5t-189.5 -108.5t-73 -280.5v-4z" />
<glyph unicode="1" horiz-adv-x="864" d="M16 1325l420 119h289v-1444h-391v1073l-242 -55z" />
<glyph unicode="2" horiz-adv-x="1277" d="M68 0v299l536 410q100 80 142 137t42 121q0 68 -44 106.5t-115 38.5q-70 0 -134.5 -42t-150.5 -142l-268 223q123 160 254 233.5t329 73.5q236 0 382.5 -127t146.5 -330v-4q0 -162 -78 -268t-254 -233l-246 -172h592v-324h-1134z" />
<glyph unicode="3" horiz-adv-x="1271" d="M37 225l250 250q160 -164 342 -164q84 0 134 40t50 106v4q0 70 -61.5 108.5t-171.5 38.5h-168l-58 207l330 297h-549v322h1036v-285l-342 -293q371 -82 371 -403v-4q0 -215 -154.5 -346.5t-398.5 -131.5q-381 0 -610 254z" />
<glyph unicode="4" horiz-adv-x="1411" d="M27 559l743 885h401v-869h183v-296h-183v-279h-385v279h-694zM444 573h342v412z" />
<glyph unicode="5" horiz-adv-x="1290" d="M39 199l227 266q184 -156 348 -156q98 0 154.5 45t56.5 123v4q0 76 -58 121t-153 45q-111 0 -229 -72l-235 132l40 727h959v-328h-645l-12 -217q109 51 229 51q209 0 350 -116.5t141 -338.5v-4q0 -236 -162.5 -373t-428.5 -137q-338 0 -582 228z" />
<glyph unicode="6" horiz-adv-x="1355" d="M84 672v4q0 350 171 568t495 218q266 0 477 -157l-187 -281q-145 109 -284 109q-121 0 -188.5 -82t-82.5 -224q145 111 310 111q199 0 336 -120t137 -326v-5q0 -236 -164 -376t-406 -140q-274 0 -438 164q-176 176 -176 537zM479 467q0 -80 55.5 -133t147.5 -53t145.5 52 t53.5 132v4q0 78 -55.5 131t-147.5 53t-145.5 -51t-53.5 -131v-4z" />
<glyph unicode="7" horiz-adv-x="1257" d="M94 1100v334h1104v-299l-633 -1135h-438l631 1100h-664z" />
<glyph unicode="8" horiz-adv-x="1290" d="M55 395v4q0 240 246 344q-197 109 -197 312v4q0 174 151 286.5t390.5 112.5t390 -112.5t150.5 -286.5v-4q0 -203 -197 -312q119 -55 182.5 -136t63.5 -206v-4q0 -190 -165 -306t-425 -116t-425 117t-165 303zM438 434q0 -68 55.5 -115t151.5 -47t151.5 47.5t55.5 114.5v4 q0 70 -58.5 113t-148.5 43t-148.5 -43t-58.5 -113v-4zM469 1010q0 -68 48 -113t128 -45t128 44t48 112v4q0 61 -49 106t-127 45q-80 0 -128 -44t-48 -105v-4z" />
<glyph unicode="9" horiz-adv-x="1355" d="M88 936v4q0 236 161 379t410 143q152 0 253.5 -41t187.5 -127q172 -168 172 -530v-4q0 -360 -174.5 -574.5t-489.5 -214.5q-283 0 -499 170l186 275q145 -115 307 -115q121 0 188.5 79t81.5 220q-123 -117 -303 -117q-213 0 -347 123t-134 330zM473 956q0 -82 56.5 -135 t148.5 -53t146.5 53t54.5 133v4q0 84 -56.5 139.5t-148.5 55.5t-146.5 -54.5t-54.5 -137.5v-5z" />
<glyph unicode=":" horiz-adv-x="602" d="M98 0v399h406v-399h-406zM98 709v399h406v-399h-406z" />
<glyph unicode=";" horiz-adv-x="602" d="M51 -193q211 25 205 193h-158v399h406v-325q0 -217 -108.5 -313.5t-313.5 -102.5zM98 709v399h406v-399h-406z" />
<glyph unicode="&#x3c;" horiz-adv-x="1318" d="M133 539v362l1018 406v-363l-670 -223l670 -223v-365z" />
<glyph unicode="=" horiz-adv-x="1308" d="M152 274v342h1005v-342h-1005zM152 825v342h1005v-342h-1005z" />
<glyph unicode="&#x3e;" horiz-adv-x="1318" d="M168 133v363l670 223l-670 223v365l1018 -406v-362z" />
<glyph unicode="?" horiz-adv-x="1105" d="M20 1241q215 215 531 215q229 0 370.5 -116.5t141.5 -313.5v-4q0 -180 -105.5 -279.5t-293.5 -144.5l-25 -131h-248l-51 342l16 18q172 14 247 55.5t75 108.5v2q0 53 -40 83t-114 30q-147 0 -299 -135zM307 0v348h404v-348h-404z" />
<glyph unicode="@" horiz-adv-x="1976" d="M92 563q0 373 262 636t645 263q373 0 628 -237.5t255 -558.5q0 -262 -128 -405.5t-308 -143.5q-225 0 -316 155q-131 -152 -301 -151q-162 0 -268 113.5t-106 297.5q0 219 134 376t318 157q178 0 275 -152l24 125l318 -49l-94 -528q-8 -61 -9 -90q0 -53 36 -87t97 -34 q104 0 173 109.5t69 306.5q0 291 -227.5 502.5t-569.5 211.5q-354 0 -587.5 -236.5t-233.5 -580.5q0 -346 232.5 -579.5t595.5 -233.5q268 0 501 137l41 -65q-251 -154 -542 -154q-393 0 -653.5 260t-260.5 635zM782 557q0 -76 42 -118t108 -42q82 0 139 69t57 167 q0 72 -42 113.5t-107 41.5q-82 0 -139.5 -67.5t-57.5 -163.5z" />
<glyph unicode="A" horiz-adv-x="1628" d="M12 0l611 1444h383l610 -1444h-426l-105 256h-553l-102 -256h-418zM649 565h322l-160 408z" />
<glyph unicode="B" horiz-adv-x="1464" d="M127 0v1434h735q262 0 391 -129q92 -92 93 -232v-4q0 -223 -222 -319q139 -45 212 -128t73 -223v-4q0 -184 -143.5 -289.5t-399.5 -105.5h-739zM514 319h307q90 0 140.5 34t50.5 98v4q0 129 -195 129h-303v-265zM514 862h250q188 0 188 125v4q0 123 -180 123h-258v-252z " />
<glyph unicode="C" horiz-adv-x="1495" d="M78 713v4q0 315 216 530t540 215q393 0 608 -299l-299 -231q-135 168 -314 168q-147 0 -244.5 -109.5t-97.5 -269.5v-4q0 -164 96.5 -273.5t245.5 -109.5q104 0 178 44t146 130l299 -213q-113 -154 -262.5 -239t-372.5 -85q-309 0 -524 212t-215 530z" />
<glyph unicode="D" horiz-adv-x="1566" d="M127 0v1434h553q377 0 593 -196t216 -513v-4q0 -317 -219 -519t-598 -202h-545zM524 352h162q180 0 287.5 95.5t107.5 267.5v4q0 170 -107.5 266t-287.5 96h-162v-729z" />
<glyph unicode="E" horiz-adv-x="1366" d="M127 0v1434h1153v-338h-760v-217h688v-314h-688v-227h770v-338h-1163z" />
<glyph unicode="F" horiz-adv-x="1327" d="M127 0v1434h1147v-349h-750v-243h678v-330h-678v-512h-397z" />
<glyph unicode="G" horiz-adv-x="1574" d="M78 713v4q0 315 220 530t552 215q340 0 582 -209l-234 -280q-162 135 -346 135q-156 0 -261.5 -114.5t-105.5 -278.5v-4q0 -174 110 -286t279 -112q139 0 230 60v174h-283v291h660v-645q-269 -222 -623 -222q-336 0 -558 209t-222 533z" />
<glyph unicode="H" horiz-adv-x="1558" d="M127 0v1434h397v-537h510v537h398v-1434h-398v545h-510v-545h-397z" />
<glyph unicode="I" horiz-adv-x="669" d="M135 0v1434h400v-1434h-400z" />
<glyph unicode="J" horiz-adv-x="1155" d="M8 217l256 242q111 -133 223 -133q78 0 121 51t43 149v908h396v-910q0 -262 -142 -403q-145 -146 -393 -146q-328 0 -504 242z" />
<glyph unicode="K" horiz-adv-x="1495" d="M127 0v1434h397v-582l494 582h471l-543 -617l561 -817h-477l-360 532l-146 -161v-371h-397z" />
<glyph unicode="L" horiz-adv-x="1261" d="M127 0v1434h397v-1086h695v-348h-1092z" />
<glyph unicode="M" horiz-adv-x="1777" d="M127 0v1434h420l342 -555l342 555h420v-1434h-396v823l-366 -561h-8l-365 557v-819h-389z" />
<glyph unicode="N" horiz-adv-x="1607" d="M127 0v1434h371l589 -758v758h394v-1434h-348l-613 786v-786h-393z" />
<glyph unicode="O" d="M78 713v4q0 311 222 528t552 217t550 -215t220 -526v-4q0 -311 -222 -528.5t-552 -217.5t-550 215t-220 527zM485 717q0 -160 103.5 -273.5t263.5 -113.5t262.5 111.5t102.5 271.5v4q0 160 -104.5 273.5t-264.5 113.5t-261.5 -111.5t-101.5 -271.5v-4z" />
<glyph unicode="P" horiz-adv-x="1378" d="M127 0v1434h614q274 0 435 -134.5t161 -369.5v-4q0 -246 -170 -381t-446 -135h-197v-410h-397zM524 721h189q104 0 165.5 50t61.5 136v4q0 92 -60.5 140.5t-168.5 48.5h-187v-379z" />
<glyph unicode="Q" d="M78 713v4q0 311 222 528t552 217t550 -215t220 -526v-4q0 -231 -127 -412l147 -125l-200 -223l-158 141q-195 -127 -436 -127q-330 0 -550 215t-220 527zM485 713q0 -160 103.5 -274.5t263.5 -114.5q76 0 145 26l-198 170l200 225l195 -176q25 66 25 140v4 q0 162 -104.5 276.5t-266.5 114.5q-160 0 -261.5 -113.5t-101.5 -273.5v-4z" />
<glyph unicode="R" horiz-adv-x="1472" d="M127 0v1434h678q315 0 467 -156q127 -123 127 -334v-4q0 -315 -295 -440l342 -500h-459l-289 434h-4h-170v-434h-397zM524 745h262q100 0 156.5 45.5t56.5 124.5v5q0 84 -56 127t-159 43h-260v-345z" />
<glyph unicode="S" horiz-adv-x="1335" d="M18 213l222 264q215 -172 465 -172q164 0 163 98v5q0 45 -49 74.5t-192 62.5q-131 31 -216 60.5t-166 79.5t-120 127t-39 183v4q0 203 150.5 331t404.5 128q352 0 590 -190l-199 -281q-201 141 -401 141q-70 0 -107 -25.5t-37 -66.5v-4q0 -49 50.5 -77.5t197.5 -61.5 q268 -59 401.5 -157.5t133.5 -289.5v-4q0 -217 -158 -342t-422 -125q-406 0 -672 238z" />
<glyph unicode="T" horiz-adv-x="1351" d="M47 1085v349h1258v-349h-431v-1085h-397v1085h-430z" />
<glyph unicode="U" horiz-adv-x="1552" d="M109 629v805h403v-797q0 -152 70.5 -228.5t193.5 -76.5t193.5 73.5t70.5 221.5v807h404v-795q0 -336 -177.5 -501t-494.5 -165q-315 0 -489 164t-174 492z" />
<glyph unicode="V" horiz-adv-x="1556" d="M12 1434h445l325 -908l326 908h436l-581 -1444h-369z" />
<glyph unicode="W" horiz-adv-x="2287" d="M31 1434h420l249 -830l277 834h342l276 -834l250 830h412l-479 -1444h-346l-289 825l-287 -825h-346z" />
<glyph unicode="X" horiz-adv-x="1499" d="M23 0l491 729l-471 705h457l254 -404l256 404h446l-471 -701l492 -733h-457l-275 432l-276 -432h-446z" />
<glyph unicode="Y" horiz-adv-x="1480" d="M-4 1434h453l294 -523l297 523h445l-545 -891v-543h-399v537z" />
<glyph unicode="Z" horiz-adv-x="1429" d="M82 0v289l719 809h-695v336h1244v-289l-719 -809h719v-336h-1268z" />
<glyph unicode="[" horiz-adv-x="935" d="M135 -266v1700h709v-265h-361v-1171h361v-264h-709z" />
<glyph unicode="\" horiz-adv-x="1095" d="M-49 1634h315l908 -1896h-316z" />
<glyph unicode="]" horiz-adv-x="935" d="M92 -2h361v1171h-361v265h709v-1700h-709v264z" />
<glyph unicode="^" horiz-adv-x="1024" d="M86 1010l295 422h262l295 -422h-272l-156 198l-156 -198h-268z" />
<glyph unicode="_" horiz-adv-x="1228" d="M-4 -90h1237v-238h-1237v238z" />
<glyph unicode="`" horiz-adv-x="1024" d="M180 1464l363 117l213 -379h-275z" />
<glyph unicode="a" horiz-adv-x="1226" d="M49 317v5q0 168 117 258t317 90q145 0 267 -43v18q0 180 -222 180q-150 0 -305 -61l-80 274q209 86 449 86q287 0 422 -135q119 -117 119 -352v-637h-385v115q-125 -140 -326 -140q-164 0 -268.5 90.5t-104.5 251.5zM424 340q0 -55 38 -88t99 -33q86 0 139.5 50t53.5 132 v52q-67 29 -149 29h-3q-84 0 -131 -38t-47 -100v-4z" />
<glyph unicode="b" horiz-adv-x="1384" d="M104 0v1495h390v-534q141 172 335 172q205 0 348.5 -158t143.5 -416v-4q0 -262 -142.5 -421t-347.5 -159q-201 0 -337 160v-135h-390zM485 553q0 -109 66 -180.5t160 -71.5q96 0 161.5 70.5t65.5 181.5v4q0 109 -65.5 179.5t-161.5 70.5q-94 0 -160 -70.5t-66 -179.5v-4z " />
<glyph unicode="c" horiz-adv-x="1165" d="M59 549v4q0 240 168 408.5t426 168.5q317 0 473 -247l-264 -197q-84 117 -207 117q-92 0 -154.5 -72t-62.5 -174v-4q0 -109 61.5 -180.5t159.5 -71.5q115 0 213 115l261 -189q-172 -254 -494 -254q-248 0 -414 169t-166 407z" />
<glyph unicode="d" horiz-adv-x="1384" d="M63 549v4q0 262 141.5 421t346.5 159q201 0 340 -160v522h389v-1495h-389v147q-141 -172 -338 -172q-205 0 -347.5 158t-142.5 416zM444 553q0 -109 67 -180.5t161 -71.5t159.5 71.5t65.5 180.5v4q0 109 -65.5 179.5t-159.5 70.5q-96 0 -162 -70.5t-66 -179.5v-4z" />
<glyph unicode="e" horiz-adv-x="1239" d="M59 549v4q0 246 158 413t401 167q272 0 416 -172.5t144 -434.5q0 -53 -2 -80h-742q47 -182 240 -182q131 0 246 113l215 -178q-179 -226 -482 -226q-262 0 -428 160t-166 416zM428 645h385q-10 92 -61.5 146.5t-130.5 54.5q-76 0 -126.5 -54.5t-66.5 -146.5z" />
<glyph unicode="f" horiz-adv-x="827" d="M45 797v305h129v24q0 193 94 287q96 96 289 96q152 0 254 -30v-275q-72 23 -145 23q-111 0 -111 -105v-26h254v-299h-248v-797h-387v797h-129z" />
<glyph unicode="g" horiz-adv-x="1384" d="M63 612v4q0 231 140.5 374t339.5 143q201 0 348 -156v131h389v-842q0 -299 -143 -442q-156 -156 -488 -156q-307 0 -555 127l125 258q188 -104 387 -104q291 0 291 272v43q-143 -166 -342 -166q-211 0 -351.5 141.5t-140.5 372.5zM444 610q0 -92 64 -152.5t164 -60.5 q98 0 161.5 61.5t63.5 153.5v4q0 92 -63.5 152.5t-162 60.5t-163 -61t-64.5 -154v-4z" />
<glyph unicode="h" horiz-adv-x="1298" d="M104 0v1495h390v-539q137 176 331 177q176 0 276.5 -110t100.5 -298v-725h-389v600q0 88 -42 137t-114 49q-74 0 -118.5 -49t-44.5 -137v-600h-390z" />
<glyph unicode="i" horiz-adv-x="614" d="M104 1208v287h406v-287h-406zM113 0v1108h389v-1108h-389z" />
<glyph unicode="j" horiz-adv-x="618" d="M-53 -61q16 -2 51 -2q59 0 87 29.5t28 99.5v1042h389v-1059q0 -203 -99.5 -293t-296.5 -90q-49 0 -159 15v258zM104 1208v287h406v-287h-406z" />
<glyph unicode="k" horiz-adv-x="1234" d="M104 0v1495h390v-758l301 371h440l-385 -444l395 -664h-428l-223 377l-100 -117v-260h-390z" />
<glyph unicode="l" horiz-adv-x="614" d="M113 0v1495h389v-1495h-389z" />
<glyph unicode="m" horiz-adv-x="1988" d="M104 0v1108h390v-152q137 176 329 177q225 0 320 -181q158 180 370 181q178 0 278.5 -106.5t100.5 -299.5v-727h-389v602q0 88 -41 136t-110 48q-72 0 -116 -48t-44 -136v-602h-389v602q0 88 -41 136t-111 48q-72 0 -114.5 -48t-42.5 -136v-602h-390z" />
<glyph unicode="n" horiz-adv-x="1298" d="M104 0v1108h390v-156q139 180 331 181q176 0 276.5 -110t100.5 -298v-725h-389v600q0 88 -42 137t-114 49q-74 0 -118.5 -49t-44.5 -137v-600h-390z" />
<glyph unicode="o" horiz-adv-x="1343" d="M59 549v4q0 240 175.5 410t439.5 170q262 0 436 -168t174 -408v-4q0 -240 -175 -410t-439 -170q-262 0 -436.5 168t-174.5 408zM438 553q0 -102 68 -176t168 -74q102 0 166.5 71.5t64.5 174.5v4q0 102 -67.5 176t-167.5 74q-102 0 -167 -72t-65 -174v-4z" />
<glyph unicode="p" horiz-adv-x="1384" d="M104 -328v1436h390v-147q141 172 335 172q205 0 348.5 -158t143.5 -416v-4q0 -262 -142.5 -421t-347.5 -159q-201 0 -337 160v-463h-390zM485 553q0 -109 66 -180.5t160 -71.5q96 0 161.5 70.5t65.5 181.5v4q0 109 -65.5 179.5t-161.5 70.5q-94 0 -160 -70.5t-66 -179.5 v-4z" />
<glyph unicode="q" horiz-adv-x="1384" d="M63 549v4q0 262 141.5 421t346.5 159q201 0 340 -160v135h389v-1436h-389v475q-141 -172 -338 -172q-205 0 -347.5 158t-142.5 416zM444 553q0 -109 67 -180.5t161 -71.5t159.5 71.5t65.5 180.5v4q0 109 -65.5 179.5t-159.5 70.5q-96 0 -162 -70.5t-66 -179.5v-4z" />
<glyph unicode="r" horiz-adv-x="876" d="M104 0v1108h390v-223q102 241 329 241h2h19v-409h-33q-317 0 -317 -373v-344h-390z" />
<glyph unicode="s" horiz-adv-x="1052" d="M20 139l146 236q193 -127 381 -127q98 0 98 59v4q0 29 -39 47.5t-139 47.5q-94 25 -156.5 49t-121 64t-87 100.5t-28.5 140.5v4q0 172 124 269t320 97q256 0 457 -129l-133 -245q-184 102 -328 102q-90 0 -90 -53v-4q0 -29 39 -48.5t141 -50.5q195 -55 294 -129.5 t99 -222.5v-4q0 -178 -122.5 -274.5t-329.5 -96.5q-297 0 -525 164z" />
<glyph unicode="t" horiz-adv-x="882" d="M41 795v313h131v281h389v-281h258v-313h-258v-375q0 -111 107 -111q70 0 147 37v-305q-112 -64 -270 -64q-373 0 -373 367v451h-131z" />
<glyph unicode="u" horiz-adv-x="1298" d="M96 383v725h389v-600q0 -88 43 -137t115 -49t117 49t45 137v600h389v-1108h-389v152q-137 -177 -332 -177q-176 0 -276.5 109t-100.5 299z" />
<glyph unicode="v" horiz-adv-x="1280" d="M20 1108h410l213 -647l213 647h404l-443 -1116h-354z" />
<glyph unicode="w" horiz-adv-x="1763" d="M25 1108h381l145 -557l170 561h321l172 -565l150 561h375l-342 -1116h-336l-180 575l-185 -575h-334z" />
<glyph unicode="x" horiz-adv-x="1206" d="M16 0l373 559l-366 549h419l164 -272l164 272h412l-365 -547l373 -561h-418l-172 285l-174 -285h-410z" />
<glyph unicode="y" horiz-adv-x="1282" d="M23 1108h407l221 -668l209 668h400l-406 -1081q-74 -197 -166 -279t-256 -82q-184 0 -356 96l121 273q98 -59 170 -60q57 0 90 45z" />
<glyph unicode="z" horiz-adv-x="1153" d="M66 0v256l512 543h-494v309h1010v-256l-514 -543h514v-309h-1028z" />
<glyph unicode="{" horiz-adv-x="1003" d="M70 459v258h32q125 0 183.5 44t58.5 157q0 18 -3 77.5t-3 73.5q0 174 121 266t420 129l59 -227q-158 -35 -206 -83t-48 -148q0 -16 3 -68.5t3 -75.5q0 -211 -229 -274q229 -63 229 -275q0 -23 -3 -75t-3 -68q0 -100 48 -148.5t206 -82.5l-59 -228q-299 37 -420 129 t-121 266q0 14 3 74t3 78q0 113 -58.5 157t-183.5 44h-32z" />
<glyph unicode="|" horiz-adv-x="727" d="M215 -262v1896h297v-1896h-297z" />
<glyph unicode="}" horiz-adv-x="1003" d="M66 -61q158 35 205.5 83t47.5 148q0 16 -3 68.5t-3 74.5q0 211 230 275q-229 63 -230 274q0 23 3 75t3 69q0 100 -48 148t-205 83l59 227q299 -37 420 -129t121 -266q0 -14 -3.5 -73.5t-3.5 -77.5q0 -113 58.5 -157t183.5 -44h33v-258h-33q-125 0 -183.5 -44t-58.5 -157 q0 -18 3.5 -77.5t3.5 -74.5q0 -174 -121 -266t-420 -129z" />
<glyph unicode="~" horiz-adv-x="1034" d="M84 502q35 158 93.5 231.5t160.5 73.5q68 0 180.5 -40t138.5 -40q41 0 61.5 21.5t43.5 72.5l188 -51q-35 -158 -93 -231.5t-161 -73.5q-68 0 -181.5 40t-139.5 40q-41 0 -60.5 -20.5t-42.5 -73.5z" />
<glyph unicode="&#xa1;" horiz-adv-x="663" d="M111 0v174l118 793h205l119 -793v-174h-442zM129 1085v349h406v-349h-406z" />
<glyph unicode="&#xa2;" horiz-adv-x="1177" d="M66 723v4q0 242 161.5 405.5t419.5 170.5l25 143h235l-30 -178q166 -61 258 -199l-238 -182q-45 55 -96 82l-94 -516q109 14 194 116l236 -172q-162 -236 -459 -243l-29 -166h-235l35 200q-172 59 -277.5 205t-105.5 330zM403 727q0 -170 115 -240l92 519 q-92 -14 -149.5 -92t-57.5 -183v-4z" />
<glyph unicode="&#xa3;" horiz-adv-x="1308" d="M90 0v236l154 59v244h-154v278h154v105q0 254 141 395t391 141q291 0 477 -207l-241 -264q-98 117 -209 117q-76 0 -120 -49t-44 -133v-105h442v-278h-442v-226h600v-313h-1149z" />
<glyph unicode="&#xa4;" horiz-adv-x="1396" d="M76 457v213h139q-2 14 -2 43v4q0 37 2 55h-139v213h172q57 211 218 344t398 133q311 0 492 -231l-252 -236q-100 127 -238 127q-156 0 -223 -143h320v-207h-365q-2 -16 -2 -51v-4q0 -31 2 -47h365v-207h-324q72 -152 235 -152q131 0 242 135l246 -231 q-189 -244 -500 -244q-242 0 -404.5 132.5t-215.5 353.5h-166z" />
<glyph unicode="&#xa5;" horiz-adv-x="1449" d="M8 1434h451l270 -471l270 471h443l-428 -650h284v-245h-376v-103h376v-246h-376v-190h-394v190h-376v246h376v103h-376v245h282z" />
<glyph unicode="&#xa7;" horiz-adv-x="1282" d="M86 694v4q0 158 186 226q-96 74 -96 202v4q0 143 123 236.5t350 93.5q147 0 275.5 -45t210.5 -117l-158 -223q-168 121 -336 121q-111 0 -111 -61v-5q0 -51 199 -92q150 -33 240 -63.5t158.5 -91t68.5 -144.5v-4q0 -158 -186 -225q96 -74 96 -201v-4q0 -143 -123 -237.5 t-350 -94.5q-147 0 -275.5 45t-210.5 117l158 223q168 -121 336 -120q111 0 111 61v4q0 51 -199 92q-111 25 -183.5 47.5t-143 57.5t-105.5 83t-35 111zM383 750q0 -55 207 -105q148 -37 203 -37q104 0 104 72v4q0 55 -207 104q-145 37 -203 37q-104 0 -104 -71v-4z" />
<glyph unicode="&#xa8;" horiz-adv-x="1024" d="M119 1202v293h338v-293h-338zM567 1202v293h338v-293h-338z" />
<glyph unicode="&#xa9;" horiz-adv-x="1699" d="M109 713v4q0 305 217 525t526 220t524 -218t215 -523v-4q0 -305 -217 -525.5t-526 -220.5t-524 218.5t-215 523.5zM195 713q0 -274 188.5 -467t464.5 -193q279 0 468 194.5t189 469.5v4q0 274 -188.5 466.5t-464.5 192.5q-279 0 -468 -194.5t-189 -468.5v-4zM449 723v4 q0 170 117.5 289t299.5 119q211 0 332 -162l-166 -131q-76 92 -172 92q-80 0 -132 -59.5t-52 -145.5v-4q0 -88 52 -146.5t132 -58.5q96 0 176 94l168 -118q-131 -177 -344 -177q-178 0 -294.5 116t-116.5 288z" />
<glyph unicode="&#xaa;" horiz-adv-x="798" d="M84 553v158h612v-158h-612zM90 999v5q0 92 64.5 141t175.5 49q82 0 145 -23v9q0 100 -123 100q-74 0 -168 -35l-43 152q115 47 246 47q158 0 234 -76q66 -63 65 -194v-349h-213v66q-67 -78 -178 -78q-90 0 -147.5 49t-57.5 137zM297 1014q0 -31 20.5 -48.5t53.5 -17.5 q47 0 76.5 28t29.5 73v26q-45 16 -84 17q-43 0 -69.5 -20.5t-26.5 -53.5v-4z" />
<glyph unicode="&#xab;" horiz-adv-x="1292" d="M61 500v98l328 438l281 -137l-267 -350l267 -348l-281 -140zM592 541v16l360 479l279 -137l-266 -350l266 -348l-279 -140z" />
<glyph unicode="&#xad;" horiz-adv-x="835" d="M82 469v342h672v-342h-672z" />
<glyph unicode="&#xae;" horiz-adv-x="1699" d="M109 713v4q0 305 217 525t526 220t524 -218t215 -523v-4q0 -305 -217 -525.5t-526 -220.5t-524 218.5t-215 523.5zM195 713q0 -274 188.5 -467t464.5 -193q279 0 468 194.5t189 469.5v4q0 274 -188.5 466.5t-464.5 192.5q-279 0 -468 -194.5t-189 -468.5v-4zM524 344v789 h367q178 0 266 -89q68 -68 68 -180v-4q0 -174 -162 -242l188 -274h-252l-159 240h-4h-93v-240h-219zM743 754h144q119 0 119 92v4q0 94 -121 94h-142v-190z" />
<glyph unicode="&#xaf;" horiz-adv-x="1024" d="M127 1212v238h770v-238h-770z" />
<glyph unicode="&#xb0;" horiz-adv-x="966" d="M111 1081v4q0 147 111.5 256t261 109t261 -108.5t111.5 -256.5v-4q0 -147 -110.5 -253.5t-262 -106.5t-262 106.5t-110.5 253.5zM311 1081q0 -72 49.5 -122t123 -50t122.5 50.5t49 121.5v4q0 72 -50 123.5t-121.5 51.5t-122 -51.5t-50.5 -123.5v-4z" />
<glyph unicode="&#xb1;" horiz-adv-x="1265" d="M33 225l248 244q162 -162 348 -162q88 0 140 39t52 98v5q0 125 -229 124h-150v299h146q203 0 203 125v4q0 55 -49.5 90t-131.5 35q-145 0 -286 -155l-246 229q106 125 240.5 193.5t326.5 68.5q238 0 383.5 -108.5t145.5 -274.5v-4q0 -231 -216 -332q252 -86 252 -321v-4 q0 -197 -151.5 -322t-409.5 -125q-379 0 -616 254z" />
<glyph unicode="&#xb2;" horiz-adv-x="1277" d="M68 0v299l536 410q100 80 142 137t42 121q0 68 -44 106.5t-115 38.5q-70 0 -134.5 -42t-150.5 -142l-268 223q123 160 254 233.5t329 73.5q236 0 382.5 -127t146.5 -330v-4q0 -162 -78 -268t-254 -233l-246 -172h592v-324h-1134z" />
<glyph unicode="&#xb3;" horiz-adv-x="1271" d="M37 225l250 250q160 -164 342 -164q84 0 134 40t50 106v4q0 70 -61.5 108.5t-171.5 38.5h-168l-58 207l330 297h-549v322h1036v-285l-342 -293q371 -82 371 -403v-4q0 -215 -154.5 -346.5t-398.5 -131.5q-381 0 -610 254z" />
<glyph unicode="&#xb4;" horiz-adv-x="1024" d="M268 1202l213 379l363 -117l-301 -262h-275z" />
<glyph unicode="&#xb5;" d="M78 713v4q0 311 222 528t552 217t550 -215t220 -526v-4q0 -299 -205 -508l359 -369v-20h-531l-184 180q-111 -27 -213 -27q-330 0 -550 214t-220 526zM485 717q0 -160 103.5 -273.5t263.5 -113.5t262.5 111.5t102.5 271.5v4q0 160 -104.5 273.5t-264.5 113.5 t-261.5 -111.5t-101.5 -271.5v-4z" />
<glyph unicode="&#xb6;" horiz-adv-x="1220" d="M45 936v4q0 236 162 365t438 129h449v-1434h-400v451h-43q-272 0 -439 127t-167 358z" />
<glyph unicode="&#xb7;" horiz-adv-x="581" d="M88 440v400h406v-400h-406z" />
<glyph unicode="&#xb8;" horiz-adv-x="1024" d="M223 -223l189 254h256l-136 -385z" />
<glyph unicode="&#xb9;" horiz-adv-x="864" d="M16 1325l420 119h289v-1444h-391v1073l-242 -55z" />
<glyph unicode="&#xba;" horiz-adv-x="798" d="M68 1122v4q0 133 95 225.5t238 92.5q141 0 235.5 -91t94.5 -223v-4q0 -133 -95.5 -225t-238.5 -92q-141 0 -235 91t-94 222zM104 553v158h590v-158h-590zM276 1126q0 -57 35 -96t90.5 -39t88 37t32.5 94v4q0 57 -34.5 97.5t-90.5 40.5q-53 0 -87 -38t-34 -96v-4z" />
<glyph unicode="&#xbb;" horiz-adv-x="1292" d="M61 199l267 350l-267 348l281 139l358 -479v-16l-358 -480zM625 199l266 350l-266 348l278 139l328 -438v-98l-328 -439z" />
<glyph unicode="&#xbc;" horiz-adv-x="3301" d="M16 1325l420 119h289v-1444h-391v1073l-242 -55zM714 -201l955 1753h323l-952 -1753h-326zM1917 559l743 885h401v-869h183v-296h-183v-279h-385v279h-694zM2334 573h342v412z" />
<glyph unicode="&#xbd;" horiz-adv-x="3168" d="M16 1325l420 119h289v-1444h-391v1073l-242 -55zM714 -201l955 1753h323l-952 -1753h-326zM1958 0v299l536 410q100 80 142 137t42 121q0 68 -44 106.5t-115 38.5q-70 0 -134.5 -42t-150.5 -142l-268 223q123 160 254 233.5t329 73.5q236 0 382.5 -127t146.5 -330v-4 q0 -162 -78 -268t-254 -233l-246 -172h592v-324h-1134z" />
<glyph unicode="&#xbe;" horiz-adv-x="3708" d="M37 225l250 250q160 -164 342 -164q84 0 134 40t50 106v4q0 70 -61.5 108.5t-171.5 38.5h-168l-58 207l330 297h-549v322h1036v-285l-342 -293q371 -82 371 -403v-4q0 -215 -154.5 -346.5t-398.5 -131.5q-381 0 -610 254zM1122 -201l955 1753h323l-952 -1753h-326z M2325 559l743 885h401v-869h183v-296h-183v-279h-385v279h-694zM2742 573h342v412z" />
<glyph unicode="&#xbf;" horiz-adv-x="1105" d="M45 408v4q0 182 104.5 280.5t294.5 143.5l23 131h248l53 -342l-18 -19q-172 -14 -247 -55t-75 -109v-2q0 -53 41 -82.5t115 -29.5q145 0 297 135l206 -270q-215 -216 -532 -216q-227 0 -368.5 117t-141.5 314zM395 1085v349h406v-349h-406z" />
<glyph unicode="&#xc0;" horiz-adv-x="1628" d="M12 0l611 1444h383l610 -1444h-426l-105 256h-553l-102 -256h-418zM401 1792l363 117l213 -379h-275zM649 565h322l-160 408z" />
<glyph unicode="&#xc1;" horiz-adv-x="1628" d="M12 0l611 1444h383l610 -1444h-426l-105 256h-553l-102 -256h-418zM649 565h322l-160 408zM653 1530l213 379l363 -117l-301 -262h-275z" />
<glyph unicode="&#xc2;" horiz-adv-x="1628" d="M12 0l611 1444h383l610 -1444h-426l-105 256h-553l-102 -256h-418zM395 1530l262 338h316l262 -338h-250l-172 125l-172 -125h-246zM649 565h322l-160 408z" />
<glyph unicode="&#xc3;" horiz-adv-x="1628" d="M12 0l611 1444h383l610 -1444h-426l-105 256h-553l-102 -256h-418zM383 1567q33 158 92.5 231.5t161.5 73.5q68 0 180.5 -40t138.5 -40q41 0 61.5 21.5t43.5 72.5l186 -51q-33 -158 -92 -231.5t-162 -73.5q-68 0 -180.5 40t-138.5 40q-41 0 -61.5 -21.5t-43.5 -72.5z M649 565h322l-160 408z" />
<glyph unicode="&#xc4;" horiz-adv-x="1628" d="M12 0l611 1444h383l610 -1444h-426l-105 256h-553l-102 -256h-418zM422 1530v293h338v-293h-338zM649 565h322l-160 408zM870 1530v293h338v-293h-338z" />
<glyph unicode="&#xc5;" horiz-adv-x="1628" d="M12 0l594 1407q-63 70 -63 158v4q0 104 81 181t191 77q109 0 189.5 -77t80.5 -181v-4q0 -88 -63 -158l594 -1407h-426l-105 256h-553l-102 -256h-418zM649 565h322l-160 408zM678 1565q0 -55 40 -95t97 -40q55 0 95 39.5t40 95.5v4q0 53 -40 93t-95 40q-57 0 -97 -40 t-40 -93v-4z" />
<glyph unicode="&#xc6;" horiz-adv-x="2177" d="M-10 0l758 1434h1341v-338h-715v-217h643v-314h-643v-227h725v-338h-1112v256h-463l-133 -256h-401zM684 565h303v543h-24z" />
<glyph unicode="&#xc7;" horiz-adv-x="1495" d="M78 713v4q0 315 216 530t540 215q393 0 608 -299l-299 -231q-135 168 -314 168q-147 0 -244.5 -109.5t-97.5 -269.5v-4q0 -164 96.5 -273.5t245.5 -109.5q104 0 178 44t146 130l299 -213q-211 -291 -557 -320l-115 -329l-309 131l160 217q-244 61 -398.5 256.5 t-154.5 462.5z" />
<glyph unicode="&#xc8;" horiz-adv-x="1366" d="M127 0v1434h1153v-338h-760v-217h688v-314h-688v-227h770v-338h-1163zM340 1792l362 117l213 -379h-274z" />
<glyph unicode="&#xc9;" horiz-adv-x="1366" d="M127 0v1434h1153v-338h-760v-217h688v-314h-688v-227h770v-338h-1163zM516 1530l213 379l363 -117l-301 -262h-275z" />
<glyph unicode="&#xca;" horiz-adv-x="1366" d="M127 0v1434h1153v-338h-760v-217h688v-314h-688v-227h770v-338h-1163zM287 1530l262 338h315l262 -338h-249l-172 125l-173 -125h-245z" />
<glyph unicode="&#xcb;" horiz-adv-x="1366" d="M127 0v1434h1153v-338h-760v-217h688v-314h-688v-227h770v-338h-1163zM313 1530v293h338v-293h-338zM762 1530v293h338v-293h-338z" />
<glyph unicode="&#xcc;" horiz-adv-x="669" d="M-84 1792l363 117l213 -379h-275zM135 0v1434h400v-1434h-400z" />
<glyph unicode="&#xcd;" horiz-adv-x="669" d="M135 0v1434h400v-1434h-400zM178 1530l213 379l363 -117l-301 -262h-275z" />
<glyph unicode="&#xce;" horiz-adv-x="669" d="M-86 1530l264 338h316l262 -338h-250l-172 125l-172 -125h-248zM135 0v1434h400v-1434h-400z" />
<glyph unicode="&#xcf;" horiz-adv-x="669" d="M-59 1530v293h340v-293h-340zM135 0v1434h400v-1434h-400zM391 1530v293h338v-293h-338z" />
<glyph unicode="&#xd0;" horiz-adv-x="1669" d="M63 565v314h164v555h553q377 0 593 -196t216 -513v-4q0 -317 -219 -519t-598 -202h-545v565h-164zM612 342h174q184 0 290 98.5t106 274.5v4q0 174 -105.5 273.5t-290.5 99.5h-174v-213h244v-314h-244v-223z" />
<glyph unicode="&#xd1;" horiz-adv-x="1607" d="M127 0v1434h371l589 -758v758h394v-1434h-348l-613 786v-786h-393zM373 1567q33 158 92 231.5t162 73.5q70 0 182.5 -40t136.5 -40q41 0 61.5 21.5t43.5 72.5l186 -51q-33 -158 -92.5 -231.5t-161.5 -73.5q-70 0 -182.5 40t-136.5 40q-41 0 -61.5 -21.5t-43.5 -72.5z" />
<glyph unicode="&#xd2;" d="M78 713v4q0 311 222 528t552 217t550 -215t220 -526v-4q0 -311 -222 -528.5t-552 -217.5t-550 215t-220 527zM418 1792l362 117l213 -379h-274zM485 717q0 -160 103.5 -273.5t263.5 -113.5t262.5 111.5t102.5 271.5v4q0 160 -104.5 273.5t-264.5 113.5t-261.5 -111.5 t-101.5 -271.5v-4z" />
<glyph unicode="&#xd3;" d="M78 713v4q0 311 222 528t552 217t550 -215t220 -526v-4q0 -311 -222 -528.5t-552 -217.5t-550 215t-220 527zM485 717q0 -160 103.5 -273.5t263.5 -113.5t262.5 111.5t102.5 271.5v4q0 160 -104.5 273.5t-264.5 113.5t-261.5 -111.5t-101.5 -271.5v-4zM711 1530l213 379 l362 -117l-301 -262h-274z" />
<glyph unicode="&#xd4;" d="M78 713v4q0 311 222 528t552 217t550 -215t220 -526v-4q0 -311 -222 -528.5t-552 -217.5t-550 215t-220 527zM432 1526l262 338h316l262 -338h-250l-172 125l-172 -125h-246zM485 717q0 -160 103.5 -273.5t263.5 -113.5t262.5 111.5t102.5 271.5v4q0 160 -104.5 273.5 t-264.5 113.5t-261.5 -111.5t-101.5 -271.5v-4z" />
<glyph unicode="&#xd5;" d="M78 713v4q0 311 222 528t552 217t550 -215t220 -526v-4q0 -311 -222 -528.5t-552 -217.5t-550 215t-220 527zM420 1567q33 158 92 231.5t162 73.5q68 0 180.5 -40t138.5 -40q41 0 61.5 21.5t43.5 72.5l186 -51q-33 -158 -92 -231.5t-162 -73.5q-68 0 -180.5 40t-138.5 40 q-41 0 -61.5 -21.5t-43.5 -72.5zM485 717q0 -160 103.5 -273.5t263.5 -113.5t262.5 111.5t102.5 271.5v4q0 160 -104.5 273.5t-264.5 113.5t-261.5 -111.5t-101.5 -271.5v-4z" />
<glyph unicode="&#xd6;" d="M78 713v4q0 311 222 528t552 217t550 -215t220 -526v-4q0 -311 -222 -528.5t-552 -217.5t-550 215t-220 527zM459 1530v293h338v-293h-338zM485 717q0 -160 103.5 -273.5t263.5 -113.5t262.5 111.5t102.5 271.5v4q0 160 -104.5 273.5t-264.5 113.5t-261.5 -111.5 t-101.5 -271.5v-4zM907 1530v293h338v-293h-338z" />
<glyph unicode="&#xd8;" d="M61 -10l205 229q-188 209 -188 494v4q0 311 222 528t552 217q227 0 405 -108l80 90h301l-202 -232q186 -207 186 -491v-4q0 -311 -222 -528.5t-552 -217.5q-223 0 -406 109l-80 -90h-301zM479 717q0 -111 49 -199l486 555q-74 39 -166 39q-162 0 -265.5 -114.5 t-103.5 -276.5v-4zM686 360q78 -38 166 -38q164 0 267.5 114.5t103.5 276.5v4q0 111 -49 198z" />
<glyph unicode="&#xd9;" horiz-adv-x="1552" d="M109 629v805h403v-797q0 -152 70.5 -228.5t193.5 -76.5t193.5 73.5t70.5 221.5v807h404v-795q0 -336 -177.5 -501t-494.5 -165q-315 0 -489 164t-174 492zM360 1782l363 116l213 -378h-274z" />
<glyph unicode="&#xda;" horiz-adv-x="1552" d="M109 629v805h403v-797q0 -152 70.5 -228.5t193.5 -76.5t193.5 73.5t70.5 221.5v807h404v-795q0 -336 -177.5 -501t-494.5 -165q-315 0 -489 164t-174 492zM616 1520l213 378l363 -116l-301 -262h-275z" />
<glyph unicode="&#xdb;" horiz-adv-x="1552" d="M109 629v805h403v-797q0 -152 70.5 -228.5t193.5 -76.5t193.5 73.5t70.5 221.5v807h404v-795q0 -336 -177.5 -501t-494.5 -165q-315 0 -489 164t-174 492zM356 1530l262 338h316l262 -338h-250l-172 125l-172 -125h-246z" />
<glyph unicode="&#xdc;" horiz-adv-x="1552" d="M109 629v805h403v-797q0 -152 70.5 -228.5t193.5 -76.5t193.5 73.5t70.5 221.5v807h404v-795q0 -336 -177.5 -501t-494.5 -165q-315 0 -489 164t-174 492zM383 1530v293h338v-293h-338zM831 1530v293h338v-293h-338z" />
<glyph unicode="&#xdd;" horiz-adv-x="1480" d="M-4 1434h453l294 -523l297 523h445l-545 -891v-543h-399v537zM575 1526l213 379l363 -117l-301 -262h-275z" />
<glyph unicode="&#xde;" horiz-adv-x="1396" d="M127 0v1434h397v-205h217q274 0 435 -131t161 -367v-4q0 -248 -170 -380t-446 -132h-197v-215h-397zM524 532h189q104 0 165.5 50.5t61.5 136.5v4q0 90 -60.5 138t-168.5 48h-187v-377z" />
<glyph unicode="&#xdf;" horiz-adv-x="1300" d="M104 0v981q0 244 145.5 388t412.5 144q233 0 372.5 -121.5t139.5 -306.5v-4q0 -227 -213 -336q121 -39 202.5 -124.5t81.5 -223.5v-4q0 -199 -172 -307q-150 -94 -375 -94q-34 0 -69 2v278q111 6 171 49.5t60 116.5v4q0 72 -62.5 114t-168.5 52v207q168 84 168 219v4 q0 68 -40 109t-102 41q-74 0 -118.5 -52.5t-44.5 -146.5v-989h-388z" />
<glyph unicode="&#xe0;" horiz-adv-x="1226" d="M49 317v5q0 168 117 258t317 90q145 0 267 -43v18q0 180 -222 180q-150 0 -305 -61l-80 274q209 86 449 86q287 0 422 -135q119 -117 119 -352v-637h-385v115q-125 -140 -326 -140q-164 0 -268.5 90.5t-104.5 251.5zM215 1468l363 117l213 -379h-275zM424 340 q0 -55 38 -88t99 -33q86 0 139.5 50t53.5 132v52q-68 29 -152 28.5t-131 -38t-47 -99.5v-4z" />
<glyph unicode="&#xe1;" horiz-adv-x="1226" d="M49 317v5q0 168 117 258t317 90q145 0 267 -43v18q0 180 -222 180q-150 0 -305 -61l-80 274q209 86 449 86q287 0 422 -135q119 -117 119 -352v-637h-385v115q-125 -140 -326 -140q-164 0 -268.5 90.5t-104.5 251.5zM424 340q0 -55 38 -88t99 -33q86 0 139.5 50t53.5 132 v52q-68 29 -152 28.5t-131 -38t-47 -99.5v-4zM442 1206l213 379l363 -117l-301 -262h-275z" />
<glyph unicode="&#xe2;" horiz-adv-x="1226" d="M49 317v5q0 168 117 258t317 90q145 0 267 -43v18q0 180 -222 180q-150 0 -305 -61l-80 274q209 86 449 86q287 0 422 -135q119 -117 119 -352v-637h-385v115q-125 -140 -326 -140q-164 0 -268.5 90.5t-104.5 251.5zM188 1202l263 338h315l262 -338h-250l-172 125 l-172 -125h-246zM424 340q0 -55 38 -88t99 -33q86 0 139.5 50t53.5 132v52q-68 29 -152 28.5t-131 -38t-47 -99.5v-4z" />
<glyph unicode="&#xe3;" horiz-adv-x="1226" d="M49 317v5q0 168 117 258t317 90q145 0 267 -43v18q0 180 -222 180q-150 0 -305 -61l-80 274q209 86 449 86q287 0 422 -135q119 -117 119 -352v-637h-385v115q-125 -140 -326 -140q-164 0 -268.5 90.5t-104.5 251.5zM180 1239q33 158 92.5 231.5t161.5 73.5 q70 0 182.5 -40t137.5 -40q41 0 61.5 21.5t42.5 73.5l186 -52q-33 -158 -92 -231.5t-161 -73.5q-70 0 -182.5 40t-137.5 40q-41 0 -61 -21.5t-43 -72.5zM424 340q0 -55 38 -88t99 -33q86 0 139.5 50t53.5 132v52q-68 29 -152 28.5t-131 -38t-47 -99.5v-4z" />
<glyph unicode="&#xe4;" horiz-adv-x="1226" d="M49 317v5q0 168 117 258t317 90q145 0 267 -43v18q0 180 -222 180q-150 0 -305 -61l-80 274q209 86 449 86q287 0 422 -135q119 -117 119 -352v-637h-385v115q-125 -140 -326 -140q-164 0 -268.5 90.5t-104.5 251.5zM215 1206v293h338v-293h-338zM424 340q0 -55 38 -88 t99 -33q86 0 139.5 50t53.5 132v52q-68 29 -152 28.5t-131 -38t-47 -99.5v-4zM664 1206v293h337v-293h-337z" />
<glyph unicode="&#xe5;" horiz-adv-x="1226" d="M49 317v5q0 168 117 258t317 90q145 0 267 -43v18q0 180 -222 180q-150 0 -305 -61l-80 274q209 86 449 86q287 0 422 -135q119 -117 119 -352v-637h-385v115q-125 -140 -326 -140q-164 0 -268.5 90.5t-104.5 251.5zM336 1470v5q0 104 82 181t190.5 77t190.5 -77t82 -181 v-5q0 -104 -82 -182t-190.5 -78t-190.5 78t-82 182zM424 340q0 -55 38 -88t99 -33q86 0 139.5 50t53.5 132v52q-68 29 -152 28.5t-131 -38t-47 -99.5v-4zM471 1470q0 -55 40 -95t97.5 -40t97 40t39.5 95v5q0 53 -39.5 93t-97 40t-97.5 -40t-40 -93v-5z" />
<glyph unicode="&#xe6;" horiz-adv-x="1925" d="M49 317v5q0 168 117 258t317 90q145 0 267 -43v18q0 180 -222 180q-150 0 -305 -61l-80 274q209 86 449 86q250 0 375 -125q139 133 346 134q266 0 408.5 -173.5t142.5 -433.5q0 -27 -4 -80h-742q49 -182 240 -182q131 0 246 113l215 -178q-178 -225 -480 -226 q-268 0 -434 166q-215 -164 -444 -164q-178 0 -295 89.5t-117 252.5zM424 340q0 -53 40 -85t103 -32q111 0 224 90q-31 72 -39 140q-68 29 -150 28q-84 0 -131 -37.5t-47 -99.5v-4zM1114 645h385q-10 92 -62.5 146.5t-131.5 54.5q-76 0 -126.5 -54.5t-64.5 -146.5z" />
<glyph unicode="&#xe7;" horiz-adv-x="1165" d="M59 549v4q0 240 168 408.5t426 168.5q317 0 473 -247l-264 -197q-84 117 -207 117q-92 0 -154.5 -72t-62.5 -174v-4q0 -109 61.5 -180.5t159.5 -71.5q115 0 213 115l261 -189q-154 -225 -418 -250l-117 -331l-309 131l166 225q-178 57 -287 206.5t-109 340.5z" />
<glyph unicode="&#xe8;" horiz-adv-x="1239" d="M59 549v4q0 246 158 413t401 167q272 0 416 -172.5t144 -434.5q0 -53 -2 -80h-742q47 -182 240 -182q131 0 246 113l215 -178q-179 -226 -482 -226q-262 0 -428 160t-166 416zM199 1468l362 117l213 -379h-274zM428 645h385q-10 92 -61.5 146.5t-130.5 54.5 q-76 0 -126.5 -54.5t-66.5 -146.5z" />
<glyph unicode="&#xe9;" horiz-adv-x="1239" d="M59 549v4q0 246 158 413t401 167q272 0 416 -172.5t144 -434.5q0 -53 -2 -80h-742q47 -182 240 -182q131 0 246 113l215 -178q-179 -226 -482 -226q-262 0 -428 160t-166 416zM428 645h385q-10 92 -61.5 146.5t-130.5 54.5q-76 0 -126.5 -54.5t-66.5 -146.5zM467 1206 l213 379l362 -117l-301 -262h-274z" />
<glyph unicode="&#xea;" horiz-adv-x="1239" d="M59 549v4q0 246 158 413t401 167q272 0 416 -172.5t144 -434.5q0 -53 -2 -80h-742q47 -182 240 -182q131 0 246 113l215 -178q-179 -226 -482 -226q-262 0 -428 160t-166 416zM201 1198l262 338h315l262 -338h-249l-173 125l-172 -125h-245zM428 645h385 q-10 92 -61.5 146.5t-130.5 54.5q-76 0 -126.5 -54.5t-66.5 -146.5z" />
<glyph unicode="&#xeb;" horiz-adv-x="1239" d="M59 549v4q0 246 158 413t401 167q272 0 416 -172.5t144 -434.5q0 -53 -2 -80h-742q47 -182 240 -182q131 0 246 113l215 -178q-179 -226 -482 -226q-262 0 -428 160t-166 416zM227 1202v293h338v-293h-338zM428 645h385q-10 92 -61.5 146.5t-130.5 54.5 q-76 0 -126.5 -54.5t-66.5 -146.5zM676 1202v293h338v-293h-338z" />
<glyph unicode="&#xec;" horiz-adv-x="614" d="M-106 1464l364 117l213 -379h-274zM113 0v1108h389v-1108h-389z" />
<glyph unicode="&#xed;" horiz-adv-x="614" d="M113 0v1108h389v-1108h-389zM150 1202l212 379l363 -117l-301 -262h-274z" />
<glyph unicode="&#xee;" horiz-adv-x="614" d="M-111 1202l263 338h315l262 -338h-250l-172 125l-172 -125h-246zM113 0v1108h389v-1108h-389z" />
<glyph unicode="&#xef;" horiz-adv-x="614" d="M-84 1202v293h338v-293h-338zM113 0v1108h389v-1108h-389zM365 1202v293h337v-293h-337z" />
<glyph unicode="&#xf0;" horiz-adv-x="1343" d="M66 510v4q0 199 134 331t353 132q131 0 221 -55l-164 219l-235 -90l-133 182l239 82l-131 180h414l43 -61l203 75l131 -182l-211 -72l131 -184q111 -160 155 -276.5t44 -259.5v-5q0 -238 -166.5 -397.5t-436.5 -159.5q-258 0 -424.5 154t-166.5 383zM440 510 q0 -88 64 -149.5t162 -61.5q100 0 159.5 60.5t59.5 148.5v4q0 86 -62.5 147.5t-160.5 61.5q-100 0 -161 -59.5t-61 -147.5v-4z" />
<glyph unicode="&#xf1;" horiz-adv-x="1298" d="M104 0v1108h390v-156q139 180 331 181q176 0 276.5 -110t100.5 -298v-725h-389v600q0 88 -42 137t-114 49q-74 0 -118.5 -49t-44.5 -137v-600h-390zM227 1239q33 158 92.5 231.5t161.5 73.5q68 0 180.5 -40t139.5 -40q41 0 61.5 21.5t42.5 73.5l187 -52 q-33 -158 -92.5 -231.5t-161.5 -73.5q-68 0 -180.5 40t-139.5 40q-41 0 -61 -21.5t-43 -72.5z" />
<glyph unicode="&#xf2;" horiz-adv-x="1343" d="M59 549v4q0 240 175.5 410t439.5 170q262 0 436 -168t174 -408v-4q0 -240 -175 -410t-439 -170q-262 0 -436.5 168t-174.5 408zM246 1468l362 117l213 -379h-274zM438 553q0 -102 68 -176t168 -74q102 0 166.5 71.5t64.5 174.5v4q0 102 -67.5 176t-167.5 74 q-102 0 -167 -72t-65 -174v-4z" />
<glyph unicode="&#xf3;" horiz-adv-x="1343" d="M59 549v4q0 240 175.5 410t439.5 170q262 0 436 -168t174 -408v-4q0 -240 -175 -410t-439 -170q-262 0 -436.5 168t-174.5 408zM438 553q0 -102 68 -176t168 -74q102 0 166.5 71.5t64.5 174.5v4q0 102 -67.5 176t-167.5 74q-102 0 -167 -72t-65 -174v-4zM522 1206 l213 379l363 -117l-301 -262h-275z" />
<glyph unicode="&#xf4;" horiz-adv-x="1343" d="M59 549v4q0 240 175.5 410t439.5 170q262 0 436 -168t174 -408v-4q0 -240 -175 -410t-439 -170q-262 0 -436.5 168t-174.5 408zM252 1198l262 338h315l263 -338h-250l-172 125l-172 -125h-246zM438 553q0 -102 68 -176t168 -74q102 0 166.5 71.5t64.5 174.5v4 q0 102 -67.5 176t-167.5 74q-102 0 -167 -72t-65 -174v-4z" />
<glyph unicode="&#xf5;" horiz-adv-x="1343" d="M59 549v4q0 240 175.5 410t439.5 170q262 0 436 -168t174 -408v-4q0 -240 -175 -410t-439 -170q-262 0 -436.5 168t-174.5 408zM240 1239q33 158 92 231.5t162 73.5q68 0 180 -40t139 -40q41 0 61.5 21.5t43.5 73.5l186 -52q-33 -158 -92.5 -231.5t-161.5 -73.5 q-68 0 -180.5 40t-139.5 40q-41 0 -61 -21.5t-43 -72.5zM438 553q0 -102 68 -176t168 -74q102 0 166.5 71.5t64.5 174.5v4q0 102 -67.5 176t-167.5 74q-102 0 -167 -72t-65 -174v-4z" />
<glyph unicode="&#xf6;" horiz-adv-x="1343" d="M59 549v4q0 240 175.5 410t439.5 170q262 0 436 -168t174 -408v-4q0 -240 -175 -410t-439 -170q-262 0 -436.5 168t-174.5 408zM279 1202v293h337v-293h-337zM438 553q0 -102 68 -176t168 -74q102 0 166.5 71.5t64.5 174.5v4q0 102 -67.5 176t-167.5 74q-102 0 -167 -72 t-65 -174v-4zM727 1202v293h338v-293h-338z" />
<glyph unicode="&#xf8;" horiz-adv-x="1343" d="M29 -10l170 188q-139 158 -140 371v4q0 240 175.5 410t439.5 170q170 0 309 -78l59 63h273l-170 -188q139 -158 139 -373v-4q0 -240 -175 -410t-439 -170q-168 0 -312 78l-57 -61h-272zM422 553q0 -52 20 -107l320 355q-41 18 -92 18q-109 0 -178.5 -76.5t-69.5 -185.5 v-4zM584 303q43 -16 90 -16q109 0 178.5 76.5t69.5 185.5v4q0 51 -21 106z" />
<glyph unicode="&#xf9;" horiz-adv-x="1298" d="M96 383v725h389v-600q0 -88 43 -137t115 -49t117 49t45 137v600h389v-1108h-389v152q-137 -177 -332 -177q-176 0 -276.5 109t-100.5 299zM256 1464l362 117l213 -379h-274z" />
<glyph unicode="&#xfa;" horiz-adv-x="1298" d="M96 383v725h389v-600q0 -88 43 -137t115 -49t117 49t45 137v600h389v-1108h-389v152q-137 -177 -332 -177q-176 0 -276.5 109t-100.5 299zM467 1202l213 379l362 -117l-301 -262h-274z" />
<glyph unicode="&#xfb;" horiz-adv-x="1298" d="M96 383v725h389v-600q0 -88 43 -137t115 -49t117 49t45 137v600h389v-1108h-389v152q-137 -177 -332 -177q-176 0 -276.5 109t-100.5 299zM229 1202l263 338h315l262 -338h-250l-172 125l-172 -125h-246z" />
<glyph unicode="&#xfc;" horiz-adv-x="1298" d="M96 383v725h389v-600q0 -88 43 -137t115 -49t117 49t45 137v600h389v-1108h-389v152q-137 -177 -332 -177q-176 0 -276.5 109t-100.5 299zM256 1202v293h338v-293h-338zM705 1202v293h337v-293h-337z" />
<glyph unicode="&#xfd;" horiz-adv-x="1282" d="M23 1108h407l221 -668l209 668h400l-406 -1081q-74 -197 -166 -279t-256 -82q-184 0 -356 96l121 273q98 -59 170 -60q57 0 90 45zM463 1202l213 379l362 -117l-301 -262h-274z" />
<glyph unicode="&#xfe;" horiz-adv-x="1384" d="M104 -328v1823h390v-534q141 172 335 172q205 0 348.5 -158t143.5 -416v-4q0 -262 -142.5 -421t-347.5 -159q-201 0 -337 160v-463h-390zM485 553q0 -109 66 -180.5t160 -71.5q96 0 161.5 70.5t65.5 181.5v4q0 109 -65.5 179.5t-161.5 70.5q-94 0 -160 -70.5t-66 -179.5 v-4z" />
<glyph unicode="&#xff;" horiz-adv-x="1282" d="M23 1108h407l221 -668l209 668h400l-406 -1081q-74 -197 -166 -279t-256 -82q-184 0 -356 96l121 273q98 -59 170 -60q57 0 90 45zM246 1202v293h338v-293h-338zM694 1202v293h338v-293h-338z" />
<glyph unicode="&#x152;" horiz-adv-x="2207" d="M78 709v4q0 319 219 520t598 201h1225v-338h-715v-217h643v-314h-643v-227h725v-338h-1243q-377 0 -593 196.5t-216 512.5zM485 715q0 -170 108 -269.5t284 -99.5h135v741h-135q-178 0 -285 -98t-107 -270v-4z" />
<glyph unicode="&#x153;" horiz-adv-x="2074" d="M59 549v4q0 240 175.5 410t429.5 170q250 0 409 -166q150 166 387 166q268 0 410.5 -173.5t142.5 -433.5q0 -27 -4 -80h-739q47 -182 237 -182q133 0 248 113l215 -178q-180 -225 -475 -226q-266 0 -426 166q-162 -166 -414 -166q-250 0 -423 169t-173 407zM438 553 q0 -102 66 -176t164 -74q102 0 164.5 71.5t62.5 174.5v4q0 102 -65.5 176t-166 74t-163 -72t-62.5 -174v-4zM1264 645h385q-10 92 -61.5 146.5t-131.5 54.5q-76 0 -126 -54.5t-66 -146.5z" />
<glyph unicode="&#x178;" horiz-adv-x="1480" d="M-4 1434h453l294 -523l297 523h445l-545 -891v-543h-399v537zM348 1530v293h338v-293h-338zM797 1530v293h338v-293h-338z" />
<glyph unicode="&#x2c6;" horiz-adv-x="1024" d="M92 1202l262 338h316l262 -338h-250l-172 125l-172 -125h-246z" />
<glyph unicode="&#x2dc;" horiz-adv-x="1024" d="M80 1239q33 158 92 231.5t162 73.5q68 0 180.5 -40t138.5 -40q41 0 61.5 21.5t43.5 73.5l186 -52q-33 -158 -92 -231.5t-162 -73.5q-68 0 -180.5 40t-138.5 40q-41 0 -61.5 -21.5t-43.5 -72.5z" />
<glyph unicode="&#x2000;" horiz-adv-x="954" />
<glyph unicode="&#x2001;" horiz-adv-x="1909" />
<glyph unicode="&#x2002;" horiz-adv-x="954" />
<glyph unicode="&#x2003;" horiz-adv-x="1909" />
<glyph unicode="&#x2004;" horiz-adv-x="636" />
<glyph unicode="&#x2005;" horiz-adv-x="477" />
<glyph unicode="&#x2006;" horiz-adv-x="318" />
<glyph unicode="&#x2007;" horiz-adv-x="318" />
<glyph unicode="&#x2008;" horiz-adv-x="238" />
<glyph unicode="&#x2009;" horiz-adv-x="381" />
<glyph unicode="&#x200a;" horiz-adv-x="106" />
<glyph unicode="&#x2010;" horiz-adv-x="835" d="M82 469v342h672v-342h-672z" />
<glyph unicode="&#x2011;" horiz-adv-x="835" d="M82 469v342h672v-342h-672z" />
<glyph unicode="&#x2012;" horiz-adv-x="835" d="M82 469v342h672v-342h-672z" />
<glyph unicode="&#x2013;" horiz-adv-x="1081" d="M82 473v334h917v-334h-917z" />
<glyph unicode="&#x2014;" horiz-adv-x="1839" d="M82 473v334h1675v-334h-1675z" />
<glyph unicode="&#x2018;" horiz-adv-x="581" d="M82 702v326q0 217 107.5 313.5t312.5 102.5l33 -150q-104 -12 -158 -61q-47 -45 -47 -119v-12h155v-400h-403z" />
<glyph unicode="&#x2019;" horiz-adv-x="581" d="M47 842q102 10 156 59q49 47 49 121v12h-156v400h404v-326q0 -217 -107.5 -313.5t-312.5 -102.5z" />
<glyph unicode="&#x201a;" horiz-adv-x="581" d="M41 -193q211 25 205 193h-158v399h406v-325q0 -217 -108.5 -313.5t-313.5 -102.5z" />
<glyph unicode="&#x201c;" horiz-adv-x="1120" d="M82 702v326q0 213 106.5 311.5t309.5 104.5l30 -150q-102 -12 -151 -61q-47 -43 -47 -119v-12h151v-400h-399zM625 702v326q0 213 107.5 311.5t307.5 104.5l33 -150q-207 -25 -201 -192h152v-400h-399z" />
<glyph unicode="&#x201d;" horiz-adv-x="1120" d="M47 842q207 23 201 192h-152v400h400v-326q0 -215 -106.5 -312.5t-309.5 -103.5zM592 842q207 23 201 192h-154v400h399v-326q0 -215 -106 -312.5t-307 -103.5z" />
<glyph unicode="&#x201e;" horiz-adv-x="1118" d="M41 -193q102 12 152 62q47 43 47 119v12h-152v399h399v-325q0 -215 -106 -312.5t-309 -103.5zM586 -193q102 12 151 62q47 43 47 119v12h-151v399h399v-325q0 -215 -106.5 -312.5t-309.5 -103.5z" />
<glyph unicode="&#x2022;" horiz-adv-x="1024" d="M166 719v4q0 143 101.5 243.5t244.5 100.5t244.5 -100.5t101.5 -243.5v-4q0 -143 -101.5 -243.5t-244.5 -100.5t-244.5 100t-101.5 244z" />
<glyph unicode="&#x2026;" horiz-adv-x="1720" d="M88 0v393h397v-393h-397zM662 0v393h397v-393h-397zM1235 0v393h397v-393h-397z" />
<glyph unicode="&#x202f;" horiz-adv-x="381" />
<glyph unicode="&#x2039;" horiz-adv-x="731" d="M61 500v98l328 438l281 -137l-267 -350l267 -348l-281 -140z" />
<glyph unicode="&#x203a;" horiz-adv-x="731" d="M61 199l267 350l-267 348l281 139l328 -438v-98l-328 -439z" />
<glyph unicode="&#x205f;" horiz-adv-x="477" />
<glyph unicode="&#x2122;" horiz-adv-x="1423" d="M33 1280v154h553v-154h-189v-477h-176v477h-188zM684 803v631h186l150 -244l151 244h185v-631h-174v368l-160 -249h-6l-160 249v-368h-172z" />
<glyph unicode="&#xe000;" horiz-adv-x="1105" d="M0 0v1106h1106v-1106h-1106z" />
</font>
</defs>
</svg>
